声远网

 找回密码
 加入声远

QQ登录

只需一步,快速开始

查看: 5880|回复: 7

[声远观影团] 【意外杀手】 Accident.Man.2018.1080p.BluRay.x264.DTS-CHD 8.53GB

[复制链接]
发表于 2018-2-6 16:42:47 | 显示全部楼层 |阅读模式
51e3da01b4e0537017a07da620771bb5.jpg
◎译  名 意外杀手
◎片  名 Accident Man
◎年  代 2018
◎产  地 英国
◎类  别 动作
◎语  言 英语
◎上映日期 2018-02-06(英国)
◎IMDb评分  6.0/10 from 73 users
◎BT之家整理 http://www.btbtt.co/
◎片  长 105分钟
◎导  演 杰西·约翰逊 Jesse V. Johnson
◎主  演 斯科特·阿金斯 Scott Adkins
      阿什丽·格林尼 Ashley Greene
      雷·帕克 Ray Park
      雷·史蒂文森 Ray Stevenson
      迈克尔·加·怀特 Michael Jai White
      艾米·约翰斯顿 Amy Johnston
      蒂姆·曼 Tim Man

◎简  介

  麦克·福隆(斯科特·阿金斯饰),号称意外杀手的他,是位冷血杀手。就他从事的职业来讲,他是顶尖的,无论是条理多样的刺杀技巧,还是瞒天过海躲过警察视线,他的每次任务都使雇主满意高兴。但是有一天他挚爱的人却卷入了伦敦的地下杀手世界,并惨遭自己同组织的人杀害。而福隆不得不打破自己长久以来井然有序,条理安排的生活,开始向实施这一切的人展开复仇
  这部电影改编自90年代的一本漫画 作者是帕特·米尔斯,《特警判官》(95年电影版由史泰龙主演)也是他的作品


Video
ID                                       : 1
Format                                   : AVC
Format/Info                              : Advanced Video Codec
Format profile                           : High@L4.1
Format settings                          : CABAC / 4 Ref Frames
Format settings, CABAC                   : Yes
Format settings, ReFrames                : 4 frames
Codec ID                                 : V_MPEG4/ISO/AVC
Duration                                 : 1 h 45 min
Bit rate                                 : 10.1 Mb/s
Width                                    : 1 920 pixels
Height                                   : 804 pixels
Display aspect ratio                     : 2.40:1
Frame rate mode                          : Constant
Frame rate                               : 23.976 (24000/1001) FPS
Color space                              : YUV
Chroma subsampling                       : 4:2:0
Bit depth                                : 8 bits
Scan type                                : Progressive
Bits/(Pixel*Frame)                       : 0.272
Stream size                              : 7.42 GiB (87%)
Writing library                          : x264 core 149 r2771+45 509cceb 7mod [8-bit@all X86_64]
Encoding settings                        : cabac=1 / ref=4 / deblock=1:-3:-3 / analyse=0x3:0x113 / me=umh / subme=10 / psy=1 / fade_compensate=0.00 / psy_rd=0.90:0.10 / mixed_ref=1 / me_range=48 / chroma_me=1 / trellis=2 / 8x8dct=1 / cqm=0 / deadzone=21,11 / fast_pskip=0 / chroma_qp_offset=-2 / threads=12 / lookahead_threads=2 / sliced_threads=0 / nr=0 / decimate=1 / interlaced=0 / bluray_compat=0 / constrained_intra=0 / fgo=0 / bframes=8 / b_pyramid=2 / b_adapt=2 / b_bias=0 / direct=3 / weightb=1 / open_gop=0 / weightp=2 / keyint=250 / keyint_min=23 / scenecut=40 / intra_refresh=0 / rc_lookahead=40 / rc=crf / mbtree=0 / crf=21.0000 / qcomp=0.70 / qpmin=0:0:0 / qpmax=69:69:69 / qpstep=4 / vbv_maxrate=35000 / vbv_bufsize=35000 / crf_max=0.0 / nal_hrd=none / filler=0 / ip_ratio=1.40 / pb_ratio=1.30 / aq=3:1.00 / aq-sensitivity=10.00 / aq-factor=1.00:1.00:1.00 / aq2=0 / aq3=2:[0.50:0.50]:[0.50:0.50]:[0.50:0.50]:[0.50:0.50] / aq3-sensitivity=10.00 / aq3-factor=[1.00:1.00]:[1.00:1.00]:[1.00:1.00] / aq3-boundary=192:64:24
Language                                 : English
Default                                  : Yes
Forced                                   : No
Color range                              : Limited
Matrix coefficients                      : BT.709

Audio
ID                                       : 2
Format                                   : DTS
Format/Info                              : Digital Theater Systems
Codec ID                                 : A_DTS
Duration                                 : 1 h 45 min
Bit rate mode                            : Constant
Bit rate                                 : 1 509 kb/s
Channel(s)                               : 6 channels
Channel positions                        : Front: L C R, Side: L R, LFE
Sampling rate                            : 48.0 kHz
Frame rate                               : 93.750 FPS (512 SPF)
Bit depth                                : 24 bits
Compression mode                         : Lossy
Stream size                              : 1.11 GiB (13%)
Language                                 : English
Default                                  : Yes
Forced                                   : No







游客,如果您要查看本帖隐藏内容请回复

发表于 2018-2-6 16:59:36 | 显示全部楼层
回复

使用道具 举报

发表于 2018-2-7 16:05:01 | 显示全部楼层

回复

使用道具 举报

发表于 2018-2-7 22:23:19 | 显示全部楼层
回复

使用道具 举报

发表于 2018-2-9 17:06:02 | 显示全部楼层
回复

使用道具 举报

发表于 2018-2-9 18:35:59 | 显示全部楼层
gggggggggggggg
回复 支持 反对

使用道具 举报

发表于 2018-4-18 15:04:21 | 显示全部楼层
感谢楼主分享
回复 支持 反对

使用道具 举报

发表于 2018-4-18 18:14:39 | 显示全部楼层
看看好看不
回复 支持 反对

使用道具 举报

您需要登录后才可以回帖 登录 | 加入声远

本版积分规则

返回顶部快速回复上一主题下一主题返回列表

济宁声远论坛|热门排行|Archiver|手机版|小黑屋|Sitemap|声远网 鲁公网安备 37081102000020号 ( 鲁ICP备18028751号 )|网站地图

法律顾问:山东济信律师事务所 唐伟建律师 | 声远门户网 | 济宁家园 | 声远游戏论坛 | 济宁汽车 | 商务合作QQ:647769

GMT+8, 2018-7-23 17:37 , Processed in 0.299762 second(s), 17 queries

Powered by Discuz! X3.4

© 2001-2018 Syuan.Net

快速回复 返回顶部 返回列表