声远网

 找回密码
 加入声远

QQ登录

只需一步,快速开始

查看: 1998|回复: 3
打印 上一主题 下一主题

[BT下载]【通勤营救】[韩版]The.Commuter.2018.720 2.83GB

[复制链接]
     
跳转到指定楼层
楼主
发表于 2018-3-28 13:38:59 | 只看该作者 |只看大图 回帖奖励 |倒序浏览 |阅读模式


⎝⎛B⎞⎠⊙译名 通勤营救/疾速救援(台)/追命列车(港)
⎝⎠T⎝⎠⊙原名 The Commuter
⎛⎞之⎛⎞⊙年代 2018
⎝⎛家⎞⎠⊙产地 美国/英国
⎝⎛官⎞⎠⊙类别 动作/惊悚/犯罪
⎛⎞网⎛⎞⊙语言 英语
⎝⎠B⎝⎠⊙上映 2018-01-12(美国)/2018-03-30(中国大陆)
⎝⎛T⎞⎠⊙评分 6.5/10 from 16,262 users
⎛⎞B⎛⎞⊙链接 IMDb Movies Page Jump
⎝⎛T⎞⎠⊙豆瓣 6.8/10 from 856 users
⎝⎝T⎠⎠⊙链接 douban Movies Page Jump
⎛⎞.⎛⎞⊙编辑 BTBTT.ME & Welcome to
⎝⎠N⎝⎠⊙片长 105分钟
⎝⎝E⎠⎠⊙导演 佐米·希尔拉 Jaume Collet-Serra
⎠⎠T⎝⎝⊙编剧 拜伦·维林格 Byron Willinger
⎝⎝ ⎠⎠    菲利普·德·布拉西 Philip de Blasi
⎝⎝ ⎠⎠    瑞安·恩格尔 Ryan Engle
⎠⎠ ⎝⎝⊙主演 连姆·尼森 Liam Neeson
⎠⎠ ⎝⎝    维拉·法米加 Vera Farmiga
⎠⎠ ⎝⎝    帕特里克·威尔森 Patrick Wilson
⎠⎠ ⎝⎝    乔纳森·班克斯 Jonathan Banks
⎠⎠ ⎝⎝    山姆·尼尔 Sam Neill
⎠⎠ ⎝⎝    伊丽莎白·麦戈文 Elizabeth McGovern
⎠⎠ ⎝⎝    基连·斯科特 Killian Scott
⎠⎠ ⎝⎝    沙扎德·拉蒂夫 Shazad Latif
⎠⎠ ⎝⎝    安迪·尼曼 Andy Nyman
⎠⎠ ⎝⎝    克拉拉·拉戈 Clara Lago
⎠⎠ ⎝⎝    罗兰·默勒 Roland Møller
⎠⎠ ⎝⎝    弗洛伦斯·皮尤 Florence Pugh
⎠⎠ ⎝⎝    迪恩·查尔斯·查普曼 Dean-Charles Chapman
⎠⎠ ⎝⎝    埃拉-雷·史密斯 Ella-Rae Smith
⎠⎠ ⎝⎝    妮拉·阿利亚 Nila Aalia
⎠⎠ ⎝⎝    柯林·麦克法兰 Colin McFarlane
⎠⎠ ⎝⎝    寇布勒·霍尔德布鲁克-史密斯 Kobna Holdbrook-Smith
⎠⎠ ⎝⎝    亚当·那加提斯 Adam Nagaitis
⎠⎠ ⎝⎝    金斯利·本-阿德 Kingsley Ben-Adir
⎠⎠ ⎝⎝    戴姆森·伊德瑞斯 Damson Idris
⎠⎠ ⎝⎝    本·卡普兰 Ben Caplan
⎠⎠ ⎝⎝    利蒂希娅·赖特 Letitia Wright
⎠⎠ ⎝⎝    杰米·比米什 Jamie Beamish

    ⊙标签 动作 | 美国 | 悬疑 | 2018 | 犯罪 | 惊悚 | 剧情 | 火车

    ⊙简介

      帖子编辑,BT之家 & BTBTT.ME &影片将故事设定在一列通勤列车上,一位十年如一日乘坐列车上下班的商界人士麦考利(连姆·尼森 饰),偶遇一位主动搭讪的“神秘乘客”乔安娜(维拉·法米加 饰)。乔安娜为麦考利提供了一个极具诱惑性的任务——找出车上的一位乘客,即可获得一笔巨额现金作为回报。但在寻找的过程中,麦考利逐渐发现自己卷入到一场致命的危险处境中。& BTBTT.ME & BT之家。
  他是否能够从这辆“恐怖列车”中成功逃脱,背后又隐藏着怎样的惊天阴谋。随着列车不断加速,真相逐一揭开......

VideoID                                       : 1Format                                   : AVCFormat/Info                              : Advanced Video CodecFormat profile                           : High@L4.1Format settings                          : CABAC / 4 Ref FramesFormat settings, CABAC                   : YesFormat settings, ReFrames                : 4 framesCodec ID                                 : V_MPEG4/ISO/AVCDuration                                 : 1 h 44 minBit rate                                 : 3 674 kb/sWidth                                    : 1 280 pixelsHeight                                   : 536 pixelsDisplay aspect ratio                     : 2.40:1Frame rate mode                          : ConstantFrame rate                               : 29.970 (30000/1001) FPSColor space                              : YUVChroma subsampling                       : 4:2:0Bit depth                                : 8 bitsScan type                                : ProgressiveBits/(Pixel*Frame)                       : 0.179Stream size                              : 2.66 GiB (94%)Title                                    : The.Commuter.2018.720p.KORSUB.HDRip.x264.AAC2.0-STUTTERSHITWriting library                          : x264 core 142 r2479 dd79a61Encoding settings                        : cabac=1 / ref=1 / deblock=1:0:0 / analyse=0x3:0x113 / me=hex / subme=2 / psy=1 / psy_rd=1.00:0.00 / mixed_ref=0 / me_range=16 / chroma_me=1 / trellis=0 / 8x8dct=1 / cqm=0 / deadzone=21,11 / fast_pskip=1 / chroma_qp_offset=0 / threads=12 / lookahead_threads=4 / sliced_threads=0 / nr=0 / decimate=1 / interlaced=0 / bluray_compat=0 / constrained_intra=0 / bframes=3 / b_pyramid=2 / b_adapt=1 / b_bias=0 / direct=1 / weightb=1 / open_gop=0 / weightp=1 / keyint=300 / keyint_min=30 / scenecut=40 / intra_refresh=0 / rc_lookahead=10 / rc=abr / mbtree=1 / bitrate=3674 / ratetol=1.0 / qcomp=0.60 / qpmin=0 / qpmax=69 / qpstep=4 / vbv_maxrate=62500 / vbv_bufsize=78125 / nal_hrd=none / filler=0 / ip_ratio=1.40 / aq=1:1.00Default                                  : YesForced                                   : NoColor range                              : LimitedColor primaries                          : BT.709Transfer characteristics                 : BT.709Matrix coefficients                      : BT.709AudioID                                       : 2Format                                   : AACFormat/Info                              : Advanced Audio CodecFormat profile                           : LCCodec ID                                 : A_AAC-2Duration                                 : 1 h 44 minBit rate                                 : 224 kb/sChannel(s)                               : 2 channelsChannel positions                        : Front: L RSampling rate                            : 48.0 kHzFrame rate                               : 46.875 FPS (1024 SPF)Compression mode                         : LossyDelay relative to video                  : 52 msStream size                              : 168 MiB (6%)Title                                    : The.Commuter.2018.720p.KORSUB.HDRip.x264.AAC2.0-STUTTERSHITLanguage                                 : EnglishDefault                                  : YesForced                                   : No 
好资源 不等人 抓紧···
游客,如果您要查看本帖隐藏内容请回复


沙发
发表于 2018-3-28 16:41:41 | 只看该作者
121
回复

使用道具 举报

板凳
发表于 2018-3-29 14:45:21 | 只看该作者
回复

使用道具 举报

地板
发表于 2018-3-31 21:23:38 | 只看该作者
回复

使用道具 举报

您需要登录后才可以回帖 登录 | 加入声远

本版积分规则

返回顶部快速回复上一主题下一主题返回列表

济宁声远论坛|热门排行|Archiver|手机版|小黑屋|Sitemap|声远网 鲁公网安备 37081102000020号 ( 鲁ICP备13013572号 )|网站地图

声远门户网 | 济宁家园 | 声远游戏论坛 | 济宁汽车 | 商务合作QQ:3124830946

GMT+8, 2018-4-20 05:09 , Processed in 0.107045 second(s), 17 queries , Gzip On, Redis On.

Powered by Discuz! X3.4

© 2001-2018 Syuan.Net

快速回复 返回顶部 返回列表